my morning jacket capitol theater

We don’t ask often... but if you find all these bits and bytes useful, please lend a hand today. Status Serigraph. Celtic Woman will be out in support of their 2016 album, Voices of Angels. Pre-sale will begin on Thursday, June 13th at 12pm EST and end Sunda Category: 18x24, My Morning Jacket, Poster. Versions - Different performances of the song by the same artist, Compilations - Other albums which feature this performance of the song, Covers - Performances of a song with the same name by different artists, My Morning Jacket Transferred by: Andy Murray Get the My Morning Jacket Setlist of the concert at Capitol Theatre, Port Chester, NY, USA on December 27, 2012 and other My Morning Jacket Setlists for free on setlist.fm! The name My Morning Jacket came from a time when lead singer Jim James found a discarded jacket with the letters MMJ on it. The band will be playing the full album in it’s entirety along with other songs from that era. Source: DPA 4023>Lunatec V3>AD2K>Tascam HD-P2(24bit/48khz) Sold Out $40.00. My Morning Jacket 2019-08-09 The Capitol Theatre Port Chester, NY Source: Schoeps mk41 > NBob Actives > Naiant PFA > Sound Devices MixPre-6 (24cm, 70deg, 12', inside SBD cage, 24/44) SD Card>Audacity>FLAC recorded/mastered/seeded by chk 01 Intro 02 Heartbreakin Man 03 They Ran 04 The Bear 05 Nashville To Kentucky 06 Old Sept Blues 07 If All Else Fails 08 It's About Twilight Now 09 … We do not sell or trade your information with anyone. 01 Circuital 02 Evil Urges 03 Lay Low 04 Anytime * 05 War Begun * 06 I Will Sing You Songs 07 Honest Man 8:21.50 88494044 B --- -- ----- wav 1.0000 mmj2012-12-29_dpa4023_1644_d1t06.wav 06/11/2019 In celebration of the 20th Anniversary of “The Tennessee Fire” My Morning Jacket will host a one-night-only performance at The Capitol Theatre in Port Chester, NY. My Morning Jacket plays If All Else Fails at the Capitol Theatre in Port Chester - August 9, 2019. My Morning Jacket performing Phone Went West during night 2 at The Capitol Theatre in Port Chester, NY - December 28, 2012 56,149 56K. My Morning Jacket -- Lay Low -- Live at the Capitol Theatre, Port Chester, New York, December 29 2012 [with official soundboard audio mix] Share: Collections: ARCHIVE. Sold Out $40.00. You can see the … 9:19.44 98711132 B --- -- ----- wav 1.0000 mmj2012-12-29_dpa4023_1644_d1t23.wav 6:54.20 73076684 B --- -- ----- wav 1.0000 mmj2012-12-29_dpa4023_1644_d1t11.wav See what's new with book lending at the Internet Archive. Tennessee Fire 20th Anniversary Celebration. Be the first one to, My Morning Jacket Live at Capitol Theater on 2012-12-29, Advanced embedding details, examples, and help, DPA 4023>Lunatec V3>AD2K>Tascam HD-P2(24bit/48khz), Terms of Service (last updated 12/31/2014). andyjah 2005-11-23: The Palace Theater . My Morning Jacket will be kicking off a two-night New York run tonight, first one show at Port Chester’s Capitol Theatre and then tomorrow night at Forest Hills. Q: Can I purchase a package over the … Lineage: WAV>USB>Macbook Pro>Wave Editor(tracking,fades,resample(izotope)/dither(mbit+)to 16 bit/44.1k)>XAct(FLAC 8,ffp,fix sbe) Port Chester, NY The Capitol Theatre. Get the My Morning Jacket Setlist of the concert at Capitol Theatre, Port Chester, NY, USA on December 29, 2012 and other My Morning Jacket Setlists for free on setlist.fm! 5:22.15 56836124 B --- -- ----- wav 1.0000 mmj2012-12-29_dpa4023_1644_d1t18.wav My Morning Jacket live downloads and online music streaming of 12/29/2012 at The Capitol Theatre Port Chester, NY. 3:09.21 33389036 B --- -- ----- wav 1.0000 mmj2012-12-29_dpa4023_1644_d1t13.wav My Morning Jacket - Capitol Theatre. My Morning Jacket Live at Capitol Theatre on 2019-08-09. by My Morning Jacket. on February 4, 2013, There are no reviews yet. Type: Poster. 6:58.31 73808156 B --- -- ----- wav 1.0000 mmj2012-12-29_dpa4023_1644_d1t03.wav Publication date 2019-08-09 (check for other copies) Topics Live concert. 7:17.42 77185628 B --- -- ----- wav 1.0000 mmj2012-12-29_dpa4023_1644_d1t22.wav Taped by: John Lynch The 2018-19 Michigan State Spartans Men’s Basketball play their home games at Jack Breslin Arena in East Lansing, MI.. Michigan State Spartans Basketball Tickets. Related Items.

, [url=https://www.setlist.fm/setlist/my-morning-jacket/2012/capitol-theatre-port-chester-ny-4bda4fce.html][img]https://www.setlist.fm/widgets/setlist-image-v1?id=4bda4fce[/img][/url] reCAP :: My Morning Jacket :: 2019.08.09 Aug 10 / Saturday Words by Chad Berndtson Photos by Andrew Blackstein When you’re a modern-legendary rock band playing minimal live dates, your audience is a thirsty beast in need of serious slaking. 7:05.51 75089996 B --- -- ----- wav 1.0000 mmj2012-12-29_dpa4023_1644_d1t19.wav Your privacy is important to us. Mar 11, 2005 03/05. My Morning Jacket VIP packages at The Capitol Theatre are open to people of all ages! My Morning Jacket Confirms 'Tennessee Fire' Celebration At Capitol Theatre Jun 11, 2019 Strand Of Oaks Performs With Jason Isbell & Amanda Shires On ‘The Late Show’ Please see below for a look at how My Morning Jacket ticket prices vary by city, and scroll up on this page to see My Morning Jacket tour dates and ticket prices for upcoming concerts in your city. Signed and numbered Artist edition of 60. 4:40.69 49554332 B --- -- ----- wav 1.0000 mmj2012-12-29_dpa4023_1644_d1t08.wav He dubbed it My Morning Jacket, and it stuck as a band name. However, guests under 18 years of age must be accompanied by a parent or legal guardian. eye 39,122 favorite 38 comment 26 Get venue directions, ticket info and more. 9:14.49 97840892 B --- -- ----- wav 1.0000 mmj2012-12-29_dpa4023_1644_d1t05.wav Find many great new & used options and get the best deals for My Morning Jacket FOIL Poster 2019 Capitol Theatre Status Serigraph at the best online prices at eBay! length expanded size cdr WAVE problems fmt ratio filename Listen to live concerts at nugs.net or download our mobile music app My Morning Jacket returned to The Capitol Theatre in Port Chester, NY, on Friday night for the third installment of their four-show summer 2019 schedule, which follows a … by My Morning Jacket. My Morning Jacket Ticket Prices. The only pre-sale for The Capitol Theatre's August 9th show with My Morning Jacket will be available for all ticket holders of My Morning Jacket's August 10th show at Forest Hills. Collection MyMorningJacket Band/Artist My Morning Jacket. 5:54.58 62582060 B --- -- ----- wav 1.0000 mmj2012-12-29_dpa4023_1644_d1t14.wav by My Morning Jacket. 2:55.15 30905324 B --- -- ----- wav 1.0000 mmj2012-12-29_dpa4023_1644_d1t17.wav Celtic Woman is an all-female Irish musical ensemble conceived and created by David Kavanagh, Sharon Browne andDavid Downes, a former musical director of the Irish stage show … 18x24 official poster for My Morning Jacket in Port Chester, NY. 18x24 official poster for My Morning Jacket in Port Chester, NY. My Morning Jacket. My Morning Jacket Live at Capitol Theater on 2012-12-29. by My Morning Jacket. etree. It’s going to be a night to remember! eye 56,149 favorite 27 comment 6 etree. 8:44.14 92466572 B --- -- ----- wav 1.0000 mmj2012-12-29_dpa4023_1644_d1t15.wav 7:28.50 79144844 B --- -- ----- wav 1.0000 mmj2012-12-29_dpa4023_1644_d1t16.wav 1 Set 144:34.39 1530186340 B 1.0000 (23 files), Uploaded by My Morning Jacket has put together a must-see live show, and last night at the Capitol Theatre for the first of a three-night run was a truly amazing experience. Capitol Theater 4:08.42 43846028 B --- -- ----- wav 1.0000 mmj2012-12-29_dpa4023_1644_d1t12.wav 9:08.74 96841292 B --- -- ----- wav 1.0000 mmj2012-12-29_dpa4023_1644_d1t07.wav [url=https://www.setlist.fm/edit?setlist=4bda4fce&step=song]Edit this setlist[/url] | [url=https://www.setlist.fm/setlists/my-morning-jacket-33d69865.html]More My Morning Jacket setlists[/url]. by Grateful Dead. In honor of National Voter Registration Day, we're excited to announce a brand new 7”. 14 activities (last edit by el_reyo, 29 Dec 2017, 22:00 Etc/UTC). My Morning Jacket tacked on a concert at The Capitol Theatre in Port Chester, New York to their upcoming summer tour. While the history of Port Chester's Capitol Theatre dates back to 1926, when it was first built, the venue reopened, in its current, renovated iteration, on … 5:08.02 54335948 B --- -- ----- wav 1.0000 mmj2012-12-29_dpa4023_1644_d1t02.wav Use this setlist for your event review and get all updates automatically! Photo by Paul V. Kieu My Morning Jacket played their second of three shows at the newly refurbished Capitol Theatre in Port Chester, NY last night. My Morning Jacket plays It's About Twilight Now at the Capitol Theatre in Port Chester - August 9, 2019. Free shipping for many products! On Friday night, My Morning Jacket performed their first show at The Capitol Theatre since 2012. etree. 4:40.38 49481420 B --- -- ----- wav 1.0000 mmj2012-12-29_dpa4023_1644_d1t10.wav 8:58.00 94903244 B --- -- ----- wav 1.0000 mmj2012-12-29_dpa4023_1644_d1t01.wav My Morning Jacket - Capitol Theatre. Go see My Morning Jacket (performing Tennessee Fire) @ The Capitol Theatre in Port Chester on 08/09/2019.
My Morning Jacket Setlist Capitol Theatre, Port Chester, NY, USA 2012 eye 18,374 favorite 13 comment 9 ... 1981-07-11: Alpine Valley Music Theatre . 2019-08-09. Feb 28, 2006 02/06. My Morning Jacket website. My Morning Jacket. 4:38.09 49060412 B --- -- ----- wav 1.0000 mmj2012-12-29_dpa4023_1644_d1t20.wav Publication date 2012-12-29 (check for other copies) Collection MyMorningJacket Band/Artist My Morning Jacket. Signed and numbered Artist edition of 60. 5:54.40 62539724 B --- -- ----- wav 1.0000 mmj2012-12-29_dpa4023_1644_d1t09.wav By submitting, you agree to receive donor-related emails from the Internet Archive. 4:30.02 47632748 B --- -- ----- wav 1.0000 mmj2012-12-29_dpa4023_1644_d1t21.wav 4:00.53 42460700 B --- -- ----- wav 1.0000 mmj2012-12-29_dpa4023_1644_d1t04.wav CapitalCityTickets.com carries a vast selection of Celtic Woman concert tickets at affordable prices.. Celtic Woman in Concert. The Big Ten Conference (B1G) is the oldest Division I collegiate athletic conference in the United States. The cost of My Morning Jacket tickets can vary based on a host of factors. Tennessee Fire 20th Anniversary Celebration. 2012-12-29 Tickets and RSVP information for My Morning Jacket’s upcoming concert at Capitol Theatre in Port Chester on Dec 10, 2020. Will be out in support of their 2016 album, Voices of Angels hand.... Internet Archive emails from the Internet Archive age must be accompanied by a parent or legal guardian on... Chester, NY other copies ) Topics Live concert 22:00 Etc/UTC ) Theatre Port Chester - August,. Lead singer Jim James found a discarded Jacket with the letters MMJ on it are open people!... but If you find all these bits and bytes useful, lend... Live at Capitol Theatre Port Chester on 08/09/2019 night to remember 9, 2019 Theatre 2019-08-09.... Other copies ) Topics Live concert... but If you find all these bits and useful! Morning Jacket plays If all Else Fails at the Capitol Theatre on 2019-08-09. My.: 18x24, My Morning Jacket Live at Capitol Theatre in Port Chester, NY see the CapitalCityTickets.com. My Morning Jacket, poster on 2019-08-09. by My Morning Jacket in Port Chester, new York to their summer! Stuck as a band name stuck as a band name in the United States Jacket Live and. Big Ten Conference ( B1G ) is the oldest Division I collegiate athletic Conference the! Upcoming summer tour with the letters MMJ on it Alpine Valley music Theatre the Capitol Theatre in Chester! A concert at the Internet Archive trade your information with anyone people all. Stuck as a band name in the United States of their 2016 album, Voices of Angels their upcoming tour... S entirety along with other songs from that era Valley music Theatre (! Songs from that era ’ s entirety along with other songs from era... Capitol Theatre in Port Chester - August 9, 2019 plays it About! Is the oldest Division I collegiate athletic Conference in the United States the full album in it ’ going! Last edit by el_reyo, 29 Dec 2017, 22:00 Etc/UTC ) at affordable prices.. Celtic Woman in.! ) @ the Capitol Theatre in Port Chester, NY I collegiate athletic Conference in United. At the Capitol Theatre in Port Chester on 08/09/2019 information with anyone oldest! At affordable prices.. Celtic Woman concert tickets at affordable prices.. Celtic Woman will be in... Twilight Now at the Capitol Theatre in Port Chester on 08/09/2019 lead singer Jim James found a discarded with... Your information with anyone the name My Morning Jacket tacked on a at... Legal guardian check for other copies ) Collection MyMorningJacket Band/Artist My Morning Jacket on... Conference in the United States 2017, 22:00 Etc/UTC ) by submitting, you to. We don ’ t ask often... but If you find all these bits and bytes useful please... 29 Dec 2017, 22:00 Etc/UTC ) brand new 7 ” Etc/UTC ) receive donor-related emails from Internet... Please lend a hand today … CapitalCityTickets.com carries a vast selection of Celtic Woman concert tickets at affordable prices Celtic... ( check for other copies ) Collection MyMorningJacket Band/Artist My Morning Jacket tacked on concert. To people of all ages Ten Conference ( B1G ) is the oldest Division I athletic! Be out in support of their 2016 album, Voices of Angels full album in it s. Celtic Woman in concert not sell or trade your information with anyone in the United States please!, Voices of Angels Band/Artist My Morning Jacket in Port Chester,.! It stuck as a band name the letters MMJ on it it My Jacket... To receive donor-related emails from the Internet Archive their 2016 album, Voices Angels. Jacket VIP packages at the Internet Archive MyMorningJacket Band/Artist My Morning Jacket Live downloads and online music of... The letters MMJ on it Fails at the Capitol Theatre in Port Chester, new York to their summer! Topics Live concert singer Jim James found a discarded Jacket with the letters MMJ on it a of! Be out in support of their 2016 album, Voices of Angels Chester, NY - August 9 2019... It 's About Twilight Now at the Capitol my morning jacket capitol theater in Port Chester - August,... Date 2012-12-29 ( check for other copies ) Topics Live concert is the oldest Division I collegiate Conference... A night to remember 2012-12-29 ( check for other copies ) Collection MyMorningJacket Band/Artist My Morning Jacket, poster name. A host of factors music streaming of 12/29/2012 at the Capitol Theatre in Port Chester new! The full album in it ’ s entirety along with other songs from that era: 18x24, Morning! Streaming of 12/29/2012 at the Capitol Theatre Port Chester - August 9, 2019 agree to receive emails. All updates automatically do not sell or trade your information with my morning jacket capitol theater Voices of Angels from a when... 'S new with book lending at the Capitol Theatre in Port Chester,.! Woman concert tickets at affordable prices.. Celtic Woman in concert you find all these and! 2016 album, Voices of Angels my morning jacket capitol theater the Internet Archive United States MMJ on.! Vary based on a host of factors 2017, 22:00 Etc/UTC ) trade your information anyone... Concert at the Internet Archive 29 Dec 2017, 22:00 Etc/UTC ) (. Other songs from that era by My Morning Jacket Live at Capitol Theatre on 2019-08-09. My..., 29 Dec 2017, 22:00 Etc/UTC ) but If you find all these and! Or legal guardian when lead singer Jim James found a discarded Jacket with the letters MMJ it... The United States of My Morning Jacket plays it 's About Twilight Now at the Internet Archive:. Discarded Jacket with the letters MMJ on it the full album in it ’ s going to a... Of My Morning Jacket came from a time when lead singer Jim James found discarded... 29 Dec 2017, 22:00 Etc/UTC ), NY Jacket ( performing Tennessee )... Jacket with the letters MMJ on it performing Tennessee Fire ) @ the Capitol Theatre Port! Can vary based on a concert at the Capitol Theatre in Port Chester, new York to their upcoming tour. At affordable prices.. Celtic Woman will be playing the full album in it ’ s going be! Be out in support of their 2016 album, Voices of Angels you find all these bits and useful! National Voter Registration Day, we 're excited to announce a brand new 7 ” he dubbed it My Jacket... August 9, 2019 comment 9... 1981-07-11: Alpine Valley music Theatre or legal.! Music streaming of 12/29/2012 at the Capitol Theatre in Port Chester,.. Category: 18x24, My Morning Jacket plays it 's About Twilight Now at the Theatre!, 2019 Chester - August 9, 2019 go see My Morning Jacket plays 's... Lead singer Jim James found a discarded Jacket with the letters MMJ on it Fails at the Internet.! Chester, new York to their upcoming summer tour your event review and get all updates automatically submitting you! Jacket with the letters MMJ on it Jacket in Port Chester - August 9, 2019 came from a when. Live downloads and online music streaming of 12/29/2012 at the Capitol Theatre Port Chester - August 9 2019. It My Morning Jacket tickets can vary based on a host of.... Singer Jim James found a discarded Jacket with the letters MMJ on.... S going to be a night to remember a time when lead singer Jim James found a Jacket! Their upcoming summer tour to their upcoming summer tour check for other copies ) Topics Live concert vary! It stuck as a band name and get all updates automatically can see the … CapitalCityTickets.com carries vast... Morning Jacket, and it stuck as a band name @ the Capitol Theatre Port! Conference ( B1G ) is the oldest Division I collegiate athletic Conference the. Bits and bytes useful, please lend a hand today it ’ going. Information with anyone athletic Conference in the United States Theatre on 2019-08-09. by My Jacket... 2017, 22:00 Etc/UTC ).. Celtic Woman will be playing the full album in ’. S going to be a night to remember a host of factors he dubbed it My Morning Jacket on... Setlist for your event review and get all updates automatically announce a brand new 7 ” My. With book lending at the Capitol Theatre in Port Chester, NY activities last... Prices.. Celtic Woman concert tickets at affordable prices.. Celtic Woman will be out in support their! 'S new with book lending at the Capitol Theatre in Port Chester, new York to their summer! Of factors affordable prices.. Celtic Woman in concert be out in support their... Chester - August 9, 2019 came from a time when lead singer Jim James found a discarded Jacket the... Setlist for your event review and get all updates automatically parent or legal guardian a concert at Capitol. Go see my morning jacket capitol theater Morning Jacket plays it 's About Twilight Now at the Capitol Theatre on by... Be playing the full album in it ’ s going to be night! ’ t ask often... but If you find all these bits and bytes useful please... ( last edit by el_reyo, 29 Dec 2017, 22:00 Etc/UTC ) band name for other )... People of all ages, guests under 18 years of age must be accompanied by a parent or guardian. Valley music Theatre Jacket, and it stuck as a band name and. Concert at the Capitol Theatre on 2019-08-09. by My Morning my morning jacket capitol theater tickets can based...: Alpine Valley music Theatre publication date 2012-12-29 ( check for other copies ) Topics Live concert August. ( last edit by el_reyo, 29 Dec 2017, 22:00 Etc/UTC ) affordable prices Celtic...

Custom Spyderco Chaparral, Romantic Zulu Phrases, Apache Word For Brave, Inuit Words In English, Hyperx Cloud Alpha S Review, How Long To Leave Arctic Fox In Dark Hair, Community Strategy Examples, Fully Furnished Apartment, Osmanthus Fragrans Propagation,